Home / Hindi Dubbed / yevadu 3 (Agnyaathavaasi) (2018) Hindi Dubbed – 720p – WEB-HD – x264 – 1.1GB – AAC – MovCr

yevadu 3 (Agnyaathavaasi) (2018) Hindi Dubbed – 720p – WEB-HD – x264 – 1.1GB – AAC – MovCr

An exiled heir to billionaire, returns after his father was murdered, as a regular employee to find out the killers and make things right in his company.

yevadu 3 (Agnyaathavaasi) (2018) Hindi Dubbed – 720p – WEB-HD – x264 – 1.1GB – AAC – MovCr

 

 

Video

ID : 1

Format : AVC

Format/Info : Advanced Video Codec

Format profile : Main@L3.1

Format settings : CABAC / 3 Ref Frames

Format settings, CABAC : Yes

Format settings, RefFrames : 3 frames

Codec ID : V_MPEG4/ISO/AVC

Duration : 2 h 7 min

Bit rate : 1 198 kb/s

Width : 1 280 pixels

Height : 720 pixels

Display aspect ratio : 16:9

Frame rate mode : Constant

Frame rate : 25.000 FPS

Color space : YUV

Chroma subsampling : 4:2:0

Bit depth : 8 bits

Scan type : Progressive

Bits/(Pixel*Frame) : 0.052

Stream size : 1.06 GiB (90%)

Title : www.MovCr.cc

Default : Yes

Forced : No

Color range : Limited

Color primaries : BT.709

Transfer characteristics : BT.709

Matrix coefficients : BT.709

 

Audio

ID : 2

Format : AAC LC

Format/Info : Advanced Audio Codec Low Complexity

Codec ID : A_AAC-2

Duration : 2 h 7 min

Bit rate : 128 kb/s

Channel(s) : 2 channels

Channel layout : L R

Sampling rate : 44.1 kHz

Frame rate : 43.066 FPS (1024 SPF)

Compression mode : Lossy

Stream size : 116 MiB (10%)

Title : www.MovCr.cc

Language : English

Default : Yes

Forced : No

 

About skyh

Leave a Reply

Your email address will not be published. Required fields are marked *

*

x

Check Also

The Nun (2018) 720p Line Auds [Hindi + Tamil + Telugu + Eng] – 900MB

When a young nun at a cloistered abbey in Romania takes her own life, a ...