Home / Bollywood Movies / Robot 2.0 Hindi Dubbed Torrent Movie Download 2018

Robot 2.0 Hindi Dubbed Torrent Movie Download 2018

Robot 2.0 In Hindi Dubbed 2018 Movie Poster

General

Format : Matroska

Format version : Version 4

File size : 957 MiB

Duration : 2 h 17 min

Overall bit rate mode : Variable

Overall bit rate : 974 kb/s

Movie name : www.HDFilmBoss.Mobi

Writing application : Lavf56.40.101

Writing library : Lavf56.40.101

 

Video

ID : 1

Format : AVC

Format/Info : Advanced Video Codec

Format profile : [email protected]

Format settings : CABAC / 4 Ref Frames

Format settings, CABAC : Yes

Format settings, RefFrames : 4 frames

Codec ID : V_MPEG4/ISO/AVC

Duration : 2 h 17 min

Bit rate : 679 kb/s

Width : 720 pixels

Height : 304 pixels

Display aspect ratio : 2.35:1

Frame rate mode : Constant

Frame rate : 25.000 FPS

Color space : YUV

Chroma subsampling : 4:2:0

Bit depth : 8 bits

Scan type : Progressive

Bits/(Pixel*Frame) : 0.124

Stream size : 667 MiB (70%)

Title : www.1337xHD.Com

Writing library : x264 core 142 r2495 6a301b6

Default : Yes

Forced : No

FromStats_BitRate : 1133786

FromStats_Duration : 02:17:25.683000000

FromStats_FrameCount : 206142

FromStats_StreamSize : 1168605488

 

Audio

ID : 2

Format : Vorbis

Format settings, Floor : 1 / 16898

Codec ID : A_VORBIS

Duration : 2 h 17 min

Bit rate mode : Variable

Bit rate : 276 kb/s

Channel(s) : 6 channels

Sampling rate : 48.0 kHz

Compression mode : Lossy

Stream size : 271 MiB (28%)

Title : www.1337xHD.Com

Writing application : Lavc56.60.100

Writing library : libVorbis (Omnipresent) (20120203 (Omnipresent))

Language : Hindi

Default : Yes

Forced : No

2.0 Indian science fiction film written and directed by S. Shankar, co-written by B. Jeyamohan, and produced by Subaskaran Allirajah.Dr.Vaseegaran is forced to reassemble Chitti in order to stop a deadly winged monster….2.0 Indian science fiction film written and directed by S. Shankar, co-written by B. Jeyamohan, and produced by Subaskaran Allirajah.Dr.Vaseegaran is forced to reassemble Chitti in order to stop a deadly winged monster….2.0 Indian science fiction film written and directed by S. Shankar, co-written by B. Jeyamohan, and produced by Subaskaran Allirajah.Dr.Vaseegaran is forced to reassemble Chitti in order to stop a deadly winged monster….2.0 Indian science fiction film written and directed by S. Shankar, co-written by B. Jeyamohan, and produced by Subaskaran Allirajah.Dr.Vaseegaran is forced to reassemble Chitti in order to stop a deadly winged monster….2.0 Indian science fiction film written and directed by S. Shankar, co-written by B. Jeyamohan, and produced by Subaskaran Allirajah.Dr.Vaseegaran is forced to reassemble Chitti in order to stop a deadly winged monster….2.0 Indian science fiction film written and directed by S. Shankar, co-written by B. Jeyamohan, and produced by Subaskaran Allirajah.Dr.Vaseegaran is forced to reassemble Chitti in order to stop a deadly winged monster….2.0 Indian science fiction film written and directed by S. Shankar, co-written by B. Jeyamohan, and produced by Subaskaran Allirajah.Dr.Vaseegaran is forced to reassemble Chitti in order to stop a deadly winged monster….

About skyh

Leave a Reply

Your email address will not be published. Required fields are marked *

*

x

Check Also

Genius Torrent Movie 720p Download Full HD Free 2018

Genius Torrent Movie Full Details Bollywood Movie Genius Torrent download 720p HD 2018 Full Free. ...