Home / Bollywood Movies / Parmanu The Story of Pokhran 2018 Hd 720p

Parmanu The Story of Pokhran 2018 Hd 720p

General

Complete name : Parmanu The Story of Pokhran 2018 Hindi PRE x264 AAC { TaRa }.mkv

Format : Matroska

Format version : Version 4 / Version 2

File size : 700 MiB

Duration : 1h 59mn

Overall bit rate : 817 Kbps

===================================================================

Video

ID : 1

Format : AVC

Format/Info : Advanced Video Codec

Format profile : [email protected]

Format settings, CABAC : Yes

Format settings, ReFrames : 4 frames

Codec ID : V_MPEG4/ISO/AVC

Duration : 1h 59mn

Bit rate : 706 Kbps

Width : 648 pixels

Height : 288 pixels

Display aspect ratio : 2.25:1

Frame rate mode : Constant

Frame rate : 25.000 fps

Color space : YUV

Chroma subsampling : 4:2:0

Bit depth : 8 bits

Scan type : Progressive

Bits/(Pixel*Frame) : 0.151

Stream size : 605 MiB (86%)

Title : …..::::: TaRa :::::….

Language : Hindi

Default : Yes

Forced : No

===================================================================

Audio

ID : 2

Format : AAC

Format/Info : Advanced Audio Codec

Format profile : LC

Codec ID : A_AAC

Duration : 1h 59mn

Bit rate : 109 Kbps

Channel(s) : 2 channels

Channel positions : Front: L R

Sampling rate : 44.1 KHz

Frame rate : 43.066 fps (1024 spf)

Compression mode : Lossy

Delay relative to video : -80ms

Stream size : 93.2 MiB (13%)

Title : …..::::: TaRa :::::….

Language : Hindi

Default : Yes

Forced : No

General

Complete name : Parmanu The Story of Pokhran 2018 Hindi PRE x264 AAC { TaRa }.mkv

Format : Matroska

Format version : Version 4 / Version 2

File size : 700 MiB

Duration : 1h 59mn

Overall bit rate : 817 Kbps

===================================================================

Video

ID : 1

Format : AVC

Format/Info : Advanced Video Codec

Format profile : [email protected]

Format settings, CABAC : Yes

Format settings, ReFrames : 4 frames

Codec ID : V_MPEG4/ISO/AVC

Duration : 1h 59mn

Bit rate : 706 Kbps

Width : 648 pixels

Height : 288 pixels

Display aspect ratio : 2.25:1

Frame rate mode : Constant

Frame rate : 25.000 fps

Color space : YUV

Chroma subsampling : 4:2:0

Bit depth : 8 bits

Scan type : Progressive

Bits/(Pixel*Frame) : 0.151

Stream size : 605 MiB (86%)

Title : …..::::: TaRa :::::….

Language : Hindi

Default : Yes

Forced : No

===================================================================

Audio

ID : 2

Format : AAC

Format/Info : Advanced Audio Codec

Format profile : LC

Codec ID : A_AAC

Duration : 1h 59mn

Bit rate : 109 Kbps

Channel(s) : 2 channels

Channel positions : Front: L R

Sampling rate : 44.1 KHz

Frame rate : 43.066 fps (1024 spf)

Compression mode : Lossy

Delay relative to video : -80ms

Stream size : 93.2 MiB (13%)

Title : …..::::: TaRa :::::….

Language : Hindi

Default : Yes

Forced : No

===================================================================

 

General

Complete name : Parmanu The Story of Pokhran 2018 Hindi PRE x264 AAC { TaRa }.mkv

Format : Matroska

Format version : Version 4 / Version 2

File size : 700 MiB

Duration : 1h 59mn

Overall bit rate : 817 Kbps

===================================================================

Video

ID : 1

Format : AVC

Format/Info : Advanced Video Codec

Format profile : [email protected]

Format settings, CABAC : Yes

Format settings, ReFrames : 4 frames

Codec ID : V_MPEG4/ISO/AVC

Duration : 1h 59mn

Bit rate : 706 Kbps

Width : 648 pixels

Height : 288 pixels

Display aspect ratio : 2.25:1

Frame rate mode : Constant

Frame rate : 25.000 fps

Color space : YUV

Chroma subsampling : 4:2:0

Bit depth : 8 bits

Scan type : Progressive

Bits/(Pixel*Frame) : 0.151

Stream size : 605 MiB (86%)

Title : …..::::: TaRa :::::….

Language : Hindi

Default : Yes

Forced : No

===================================================================

Audio

ID : 2

Format : AAC

Format/Info : Advanced Audio Codec

Format profile : LC

Codec ID : A_AAC

Duration : 1h 59mn

Bit rate : 109 Kbps

Channel(s) : 2 channels

Channel positions : Front: L R

Sampling rate : 44.1 KHz

Frame rate : 43.066 fps (1024 spf)

Compression mode : Lossy

Delay relative to video : -80ms

Stream size : 93.2 MiB (13%)

Title : …..::::: TaRa :::::….

Language : Hindi

Default : Yes

Forced : No

===================================================================

 

 

 

 

About skyh

Leave a Reply

Your email address will not be published. Required fields are marked *

*

x

Check Also

Namaste England 2018 Hindi Pre-DVDRip x264 AAC

Synopsis Namaste England 2018 Hindi Full Movie To Watch Online.to watch online Hindi full movie ...