Home / Kalkata Bangla Movies / Kabir (2018) Bengali Movie – No Harbal ADS – 1CD – HDTVRip[Mp4 – AAC3(5.1Ch)]

Kabir (2018) Bengali Movie – No Harbal ADS – 1CD – HDTVRip[Mp4 – AAC3(5.1Ch)]

Kabir (2018) is an Indian Bengali-language thriller film, directed by Aniket Chattopadhyay, starring Dev and Rukmini Maitra which released on 13 April 2018.[4][5][6][7][8]

 

Plot Edit

The storyline of the flim is based on apprehension of co-founder of Indian Mujahideen and conspirator of several bomb blasts in India, Yasin Bhatkal, by National Investigation Agency near Indo-Nepal border.[9]

 

The story of the film begins with a few bomb blasts in Mumbai.[citation needed]

 

A burkha clad lady, Yasmin aged in between 22/23 years took a taxi from Zaveri Bazaar she was going to VT station. There were ambulances, police vehicles on the way. It was a scary afternoon. The taxi suddenly stopped, it was a comparatively lonely area. The taxi driver refused to give any reason but firmly said that he would not go towards VT. Yasmin was trying to get a lift but the vehicles didn’t stop. After a few minutes a car stopped and agreed to give her a lift. The person inside introduced himself as Abir Chatterjee; he was also going to VT station.

 

On the way to VT Yasmin had a phone conversation with her father whom we found to be a half paralysed old man in his Kolkata house. She assured her father, who was watching TV news regarding Bomb blasts in Mumbai. The car reached VT stn, Yasmin got down, thanked Abir. She rushed to the station. Going inside the station she found that the Duronto Express was late for 2hrs, so she went to upper class waiting room. Yasmin & Abir met again in the compartment, they both were going to Howrah.

 

Now a journey begins, a journey to find out the root cause of terrorism, in depth nature of terrorism, a journey which ends in finding out the truth that it’s not the religion but a few people dividing the masses to play with their vested interest. KABIR unfolds the eternal message of peace and coexistence.General Format : Matroska Format version : Version 4 / Version 2 File size : 699 MiB Duration : 1 h 43 min Video ID : 1 Format : AVC Format/Info : Advanced Video Codec Format profile : High@L2.1 Format settings : CABAC / 4 Ref Frames Format settings, CABAC : Yes Format settings, RefFrames : 4 frames Codec ID : V_MPEG4/ISO/AVC Duration : 1 h 43 min Bit rate : 814 kb/s Width : 640 pixels Height : 272 pixels Display aspect ratio : 2.35:1 Frame rate mode : Constant Frame rate : 25.000 FPS Color space : YUV Chroma subsampling : 4:2:0 Bit depth : 8 bits Scan type : Progressive Bits/(Pixel*Frame) : 0.187 Stream size : 603 MiB (86%) Audio ID : 2 Format : AAC Format/Info : Advanced Audio Codec Format profile : HE-AAC / LC Format settings : Explicit Codec ID : A_AAC-2 Duration : 1 h 43 min Bit rate : 128 kb/s Channel(s) : 6 channels Channel positions : Front: L C R, Side: L R, LFE Sampling rate : 48.0 kHz Stream size : 94.7 MiB (14%)

The storyline of the film is based on apprehension of co-founder of Indian Mujahideen and conspirator of several bom blasts in India, Yasin Bhatkal, by National Investigation Agency near Indo-Nepal border.

 

About skyh

Leave a Reply

Your email address will not be published. Required fields are marked *

*

x

Check Also

Gangster (Bengali Movie) – Torrent 720p

Gangster is an Indian (Bengali) film of romance thriller genre directed by Birsa Dasgupta with ...