Home / Uncategorized / Dabangg 3 2020 720p Hindi x264 torrent

Dabangg 3 2020 720p Hindi x264 torrent

Dabangg 3 2020 720p Hindi x264 GOPISAHI

Format : Matroska

Format version : Version 4

File size : 1.03 GiB

Duration : 2 h 28 min

Overall bit rate : 997 kb/s

Movie name : DABANGG 2 2020 GOPISAHI

Video

Format : AVC

Format/Info : Advanced Video Codec

Format profile : [email protected]

Format settings : CABAC / 12 Ref Frames

Format settings, CABAC : Yes

Format settings, Reference fra : 12 frames

Codec ID : V_MPEG4/ISO/AVC

Duration : 2 h 28 min

Bit rate : 899 kb/s

Width : 1 276 pixels

Height : 528 pixels

Display aspect ratio : 2.40:1

Frame rate mode : Constant

Frame rate : 24.000 FPS

Color space : YUV

Chroma subsampling : 4:2:0

Bit depth : 8 bits

Scan type : Progressive

Bits/(Pixel*Frame) : 0.056

Stream size : 954 MiB (90%)

Title : GOPISAHI

Writing library : x264 core 157 r2935 545de2f

Audio

Format : AAC LC

Duration : 2 h 28 min

Bit rate : 96.0 kb/s

Channel(s) : 2 channels

Channel layout : L R

Sampling rate : 48.0 kHz

Frame rate : 46.875 FPS (1024 SPF)

Compression mode : Lossy

Delay relative to video : -21 ms

Stream size : 102 MiB (10%)

Title : GOPISAHI

Language : Hindi

Text

Language : English

Menu

00:00:00.000 : en:Film Certification

00:00:05.000 : en:Disclaimer

00:00:18.000 : en:Acknowledgement

00:00:26.000 : en:Studio Logo

00:01:20.000 : en:Opening Credits

00:03:23.000 : en:Title Sequence

00:03:34.000 : en:Scene 7

00:04:15.000 : en:Scene 8

00:11:42.000 : en:Scene 9

00:15:01.000 : en:Scene 10

00:15:45.000 : en:Scene 11

00:16:45.000 : en:Scene 12

00:22:02.000 : en:Scene 13

00:30:17.000 : en:Scene 14

00:34:07.000 : en:Scene 15

00:46:07.000 : en:Scene 16

00:53:34.000 : en:Scene 17

00:55:04.000 : en:Scene 18

01:09:12.000 : en:Scene 19

01:12:34.000 : en:Scene 20

01:18:02.000 : en:Scene 21

01:20:53.000 : en:Scene 22

01:26:20.000 : en:Scene 23

01:37:28.000 : en:Scene 24

01:41:00.000 : en:Scene 25

01:50:51.000 : en:Scene 26

02:00:24.000 : en:Scene 27

02:08:12.000 : en:Scene 28

02:22:57.000 : en:End Credits

Download

About skyh

Leave a Reply

Your email address will not be published. Required fields are marked *

*