Home / Hindi Dubbed / BHARAT- The Great Leader (Bharat Ane Nenu) 720p Hindi Dubbed 2018

BHARAT- The Great Leader (Bharat Ane Nenu) 720p Hindi Dubbed 2018

Bharat,a graduate from UK,the heir of a Chief Minister of a state in India takes up his father’s throne after his death.His accountability and responsibility and him urging the people to be the same for a better society lands him in trouble politically.How he re-gains the faith and become a great leader must be experienced on screen. Written by Vamshi Reddy

 

BHARAT- The Great Leader (Bharat Ane Nenu) (2018) 720p Hindi Dubbed WEBHD x264 AAC 1GB –

 

 

https://www.imdb.com/title/tt6980546/

 

BHARAT- The Great Leader (Bharat Ane Nenu) 720p Hindi Dubbed 2018

 

General

Unique ID : 338751122427084654849140742169675556741 (0xFED917D151C58E46EED878371FD1E785)

Complete name : www.MovCr.cc – BHARAT- The Great Leader (Bharat Ane Nenu) (2018) 720p Hindi Dubbed WEBHD x264 AAC 1GB – .mkv

Format : Matroska

Format version : Version 4 / Version 2

File size : 1.03 GiB

Duration : 2 h 24 min

Overall bit rate : 1 018 kb/s

Movie name : www.MovCr.cc

Encoded date : UTC 2018-10-20 12:53:41

Writing application : mkvmerge v26.0.0 (‘In The Game’) 64-bit

Writing library : libebml v1.3.6 + libmatroska v1.4.9

 

Video

ID : 1

Format : AVC

Format/Info : Advanced Video Codec

Format profile : Main@L3.1

Format settings : CABAC / 3 Ref Frames

Format settings, CABAC : Yes

Format settings, RefFrames : 3 frames

Codec ID : V_MPEG4/ISO/AVC

Duration : 2 h 24 min

Bit rate : 887 kb/s

Width : 1 280 pixels

Height : 720 pixels

Display aspect ratio : 16:9

Frame rate mode : Constant

Frame rate : 30.000 FPS

Color space : YUV

Chroma subsampling : 4:2:0

Bit depth : 8 bits

Scan type : Progressive

Bits/(Pixel*Frame) : 0.032

Stream size : 917 MiB (87%)

Title : www.MovCr.cc

Default : Yes

Forced : No

Color range : Limited

Color primaries : BT.709

Transfer characteristics : BT.709

Matrix coefficients : BT.709

 

Audio

ID : 2

Format : AAC

Format/Info : Advanced Audio Codec

Format profile : LC

Codec ID : A_AAC-2

Duration : 2 h 24 min

Bit rate : 128 kb/s

Channel(s) : 2 channels

Channel positions : Front: L R

Sampling rate : 44.1 kHz

Frame rate : 43.066 FPS (1024 SPF)

Compression mode : Lossy

Stream size : 132 MiB (13%)

Title : www.MovCr.cc

Language : Hindi

Default : Yes

Forced : No

 

About skyh

Leave a Reply

Your email address will not be published. Required fields are marked *

*

x

Check Also

The Nun (2018) 720p Line Auds [Hindi + Tamil + Telugu + Eng] – 900MB

When a young nun at a cloistered abbey in Romania takes her own life, a ...