Home / Kalkata Bangla Movies / AranyaDeb (2017)Bengali Movie – HDRip [x264 – AAC3(5.1Ch)] – 849 MB

AranyaDeb (2017)Bengali Movie – HDRip [x264 – AAC3(5.1Ch)] – 849 MB

Synopsis

Aranya stays in North Calcutta, reluctantly goes to work in a small company doing meaningless chores just to keep his family happy and. Aranya believes it is his job to protect everyone from evil. He does wonder at times… why… others cant understand his mission and his powers and why they cant believe that he is special… but he knows… no… he believes that they will all be thankful one day. Aranya has a soul mate, Deb with whom he grew up. They went to the same school and were inseparable all through their childhood. But Deb was a boy wonder and grew to be a man of amazing talents. He sailed through his studies, was a natural athlete, was there in school functions and was a darling of teachers, parents and friends alike. He was effortlessly the center of attraction, everywhere. College took them onto separate journeys and thereafter their lives were tangential. Life for him… is to achieve… more… relentlessly. It is story of a single fateful day when two best friends who…General Format : Matroska Format version : Version 4 / Version 2 File size : 849 MiB Duration : 2 h 27 min Video ID : 1 Format : AVC Format/Info : Advanced Video Codec Format profile : High@L2.1 Format settings : CABAC / 4 Ref Frames Format settings, CABAC : Yes Format settings, RefFrames : 4 frames Codec ID : V_MPEG4/ISO/AVC Duration : 2 h 27 min Bit rate : 677 kb/s Width : 640 pixels Height : 288 pixels Display aspect ratio : 2.222 Frame rate mode : Constant Frame rate : 25.000 FPS Color space : YUV Chroma subsampling : 4:2:0 Bit depth : 8 bits Scan type : Progressive Bits/(Pixel*Frame) : 0.147 Stream size : 713 MiB (84%) Audio ID : 2 Format : AAC Format/Info : Advanced Audio Codec Format profile : HE-AAC / LC Format settings : Explicit Codec ID : A_AAC-2 Duration : 2 h 27 min Bit rate : 128 kb/s Channel(s) : 6 channels Channel positions : Front: L C R, Side: L R, LFE Sampling rate : 48.0 kHz Stream size : 135 MiB (16%) Synopsis

 

Aranya stays in North Calcutta, reluctantly goes to work in a small company doing meaningless chores just to keep his family happy and. Aranya believes it is his job to protect everyone from evil. He does wonder at times… why… others cant understand his mission and his powers and why they cant believe that he is special… but he knows… no… he believes that they will all be thankful one day. Aranya has a soul mate, Deb with whom he grew up. They went to the same school and were inseparable all through their childhood. But Deb was a boy wonder and grew to be a man of amazing talents. He sailed through his studies, was a natural athlete, was there in school functions and was a darling of teachers, parents and friends alike. He was effortlessly the center of attraction, everywhere. College took them onto separate journeys and thereafter their lives were tangential. Life for him… is to achieve… more… relentlessly. It is story of a single fateful day when two best friends who…General Format : Matroska Format version : Version 4 / Version 2 File size : 849 MiB Duration : 2 h 27 min Video ID : 1 Format : AVC Format/Info : Advanced Video Codec Format profile : High@L2.1 Format settings : CABAC / 4 Ref Frames Format settings, CABAC : Yes Format settings, RefFrames : 4 frames Codec ID : V_MPEG4/ISO/AVC Duration : 2 h 27 min Bit rate : 677 kb/s Width : 640 pixels Height : 288 pixels Display aspect ratio : 2.222 Frame rate mode : Constant Frame rate : 25.000 FPS Color space : YUV Chroma subsampling : 4:2:0 Bit depth : 8 bits Scan type : Progressive Bits/(Pixel*Frame) : 0.147 Stream size : 713 MiB (84%) Audio ID : 2 Format : AAC Format/Info : Advanced Audio Codec Format profile : HE-AAC / LC Format settings : Explicit Codec ID : A_AAC-2 Duration : 2 h 27 min Bit rate : 128 kb/s Channel(s) : 6 channels Channel positions : Front: L C R, Side: L R, LFE Sampling rate : 48.0 kHz Stream size : 135 MiB (16%)

 

About skyh

Leave a Reply

Your email address will not be published. Required fields are marked *

*

x

Check Also

Gangster (Bengali Movie) – Torrent 720p

Gangster is an Indian (Bengali) film of romance thriller genre directed by Birsa Dasgupta with ...